Si continuas navegando por Mega Descargas, aceptas las políticas de privacidadAcepto el uso de cookies
^

Super Girl T3 Capitulo 10/22 Latino 1080p

Super Girl
Temporada 3
Capitulo 10 / 22
Audio Latino
1080p WeB-DL






"Kara, de 14 años, escapó del planeta condenado Krypton con la ayuda de sus padres al mismo tiempo que el pequeño Kal-El. Protegida y criada en la Tierra por su familia adoptiva, los Danvers, Kara creció a la sombra de su hermana adoptiva, Alex, y aprendió a ocultar los poderes fenomenales que comparte con su famoso primo con el fin de mantener su identidad en secreto. Años más tarde, Kara vive en National City y todavía ocultando sus poderes, cuando un accidente de avión amenazó la vida de Alex y Kara tomó el cielo para salvarla. Ahora, Kara equilibra su trabajo como reportera de CatCo Worldwide Media con su trabajo para el Departamento de Operaciones Extra-Normales (D.E.O.), una organización gubernamental súper secreta cuya misión es mantener a National City y a la Tierra a salvo de amenazas siniestras. En la D.E.O., Kara trabaja para J'onn J'onzz, el Martian Manhunter, y junto a su hermana adoptiva, Alex, y su mejor amigo, Winn Schott. También en la vida de Kara está la magnate de los medios de comunicación Cat Grant, James Olsen, un periodista fotográfico que viste el traje de Guardián, un vigilante enmascarada, Lena Luthor y Mon-El de Daxam, cuyo planeta fue devastado por la destrucción de Krypton. Como Kara lucha por navegar sus relaciones y su vida floreciente como una reportera, su corazón se eleva como ella cuando toma a los cielos como Supergirl para luchar contra el crimen."













Tamaño:  1.6gb Promedio
Resolución: 1912x1072p
Formato: MKV
Duracion: 44 min Promedio.
Codec: x264
Audio: Español Latino
Subtitulos: NO
Uploader : xeca_efe_up
Servidor: Mega

Contraseña : No Tiene


ID                          : 2
Format                      : AVC
Format/Info                 : Advanced Video Codec
Format profile              : [email protected]
Format settings, CABAC      : Yes
Format settings, RefFrames  : 4 frames
Codec ID                    : V_MPEG4/ISO/AVC
Duration                    : 42 min 24 s
Bit rate                    : 5 149 kb/s
Width                       : 1 912 pixels
Height                      : 1 072 pixels
Display aspect ratio        : 16:9
Frame rate mode             : Constant
Frame rate                  : 23.976 (23976/1000) FPS
Color space                 : YUV
Chroma subsampling          : 4:2:0
Bit depth                   : 8 bits
Scan type                   : Progressive
Bits/(Pixel*Frame)          : 0.105
Stream size                 : 1.52 GiB (90%)
Language                    : English
Default                     : Yes
Forced                      : No
Color range                 : Limited
Color primaries             : BT.709
Transfer characteristics    : BT.709
Matrix coefficients         : BT.709


Audio #1
ID                          : 3
Format                      : AC-3
Format/Info                 : Audio Coding 3
Format settings, Endianness : Big
Codec ID                    : A_AC3
Duration                    : 42 min 24 s
Bit rate mode               : Constant
Bit rate                    : 192 kb/s
Channel(s)                  : 2 channels
Channel positions           : Front: L R
Sampling rate               : 48.0 kHz
Frame rate                  : 31.250 FPS (1536 SPF)
Bit depth                   : 16 bits
Compression mode            : Lossy
Delay relative to video     : -42 ms
Stream size                 : 58.2 MiB (3%)
Title                       : Español Latino
Language                    : Spanish
Service kind                : Complete Main
Default                     : Yes
Forced                      : No


MEGA
dividido en partes rar sin contraseña ...
  • 1
  • 0
  • 2228
  • 28
  • 0
  • Categoria Series

Buscar Descargas


Crea Tu Post